everythings.pl: Codehunters (2006) DVDRip - everythings.pl

Skocz do zawartości



Strona 1 z 1
  • Nie możesz napisać tematu
  • Nie możesz odpowiedzieć

Codehunters (2006) DVDRip Oceń temat: -----

#1 Użytkownik nie jest zalogowany   Pazur 

  • Grupa: Użytkownik
  • Postów 588
  • Rejestracja: śro, 25 lut 09

Napisano 07 grudzień 2012 - 19:55




REKLAMA


Dołączona grafika
Dołączona grafika
Dołączona grafika

Cytat

Świat przedstawiony w „Codehunters” wygląda jak połączenie westernu z rzeczywistością „Mad Maksa”. Akcja rozgrywa się w niedalekiej przyszłości w portowym mieście Lhek leżącym w Azji. Nie jest to miejsce przyjazne dla człowieka – wszelkie granice przestały istnieć, legalna władza upadła, zaś jedyną namiastką prawa i porządku są brutalne rządy Khaana kontrolującego Lhek. Dookoła miasta rozciąga się bezkresne wysuszone pustkowie, tu i ówdzie usiane jedynie zrujnowanymi pozostałościami dawnego świata. Sama metropolia zresztą też zbyt zachęcająca nie jest, bo oprócz żołnierzy, na ulicach można też spotkać demony – krwiożercze istoty stworzone przed osiemdziesięciu laty przez prawą rękę Khaana, Nirana, z dziecięcych koszmarów. W tym niezbyt optymistycznym obrazie pojawił się jednak jasny element, a był nim Krai, potomek prawie zupełnie wyniszczonej rasy zdolnej manipulować kodem DNA.


Cytat

General
Complete name : CODEHUNTERS.avi
Format : AVI
File size : 85.5 MiB
Duration : 9mn 5s
Overall bit rate : 1 316 Kbps

Video
Format : MPEG-4 Visual
Codec ID/Hint : XviD
Duration : 9mn 5s
Bit rate : 1 178 Kbps
Width : 640 pixels
Height : 360 pixels
Display aspect ratio : 16:9
Frame rate : 25.000 fps
Stream size : 76.6 MiB (90%)

Audio
Format : MPEG Audio
Codec ID/Hint : MP3
Bit rate mode : Constant
Bit rate : 128 Kbps
Channel(s) : 2 channels
Sampling rate : 48.0 KHz
Stream size : 8.32 MiB (10%)


Download



Lub/Or



Lub/Or





Strona 1 z 1
  • Nie możesz napisać tematu
  • Nie możesz odpowiedzieć