everythings.pl: Planet Anal - Lily Carter - everythings.pl

Skocz do zawartości



Strona 1 z 1
  • Nie możesz napisać tematu
  • Nie możesz odpowiedzieć

Planet Anal - Lily Carter xXx Oceń temat: -----

#1 Użytkownik nie jest zalogowany   Pazur 

  • Grupa: Użytkownik
  • Postów 590
  • Rejestracja: śro, 25 lut 09

Napisano 27 grudzień 2012 - 15:56

Cytat

General
Complete name : Planet.anal_-_Lily.Carter.mp4
Format : MPEG-4
File size : 219 MiB
Duration : 1h 1mn
Overall bit rate : 497 Kbps

Video
Format : AVC
Bit rate : 372 Kbps
Nominal bit rate : 400 Kbps
Width : 432 pixels
Height : 240 pixels
Display aspect ratio : 16:9
Frame rate : 24.000 fps
Stream size : 164 MiB (75%)

Audio
Format : AAC
Bit rate mode : Constant
Bit rate : 96.0 Kbps
Channel(s) : 2 channels
Sampling rate : 44.1 KHz
Stream size : 42.3 MiB (19%)


Dołączona grafika
Dołączona grafika
Dołączona grafika
Dołączona grafika


-= DOWNLOAD =-











Strona 1 z 1
  • Nie możesz napisać tematu
  • Nie możesz odpowiedzieć