everythings.pl: Little Witch Academia OVA (2013) - everythings.pl

Skocz do zawartości



Strona 1 z 1
  • Nie możesz napisać tematu
  • Nie możesz odpowiedzieć

Little Witch Academia OVA (2013) Little Witch Academia OVA (2013) [1080p | ENG sub] Oceń temat: -----

#1 Użytkownik nie jest zalogowany   Pazur 

  • Grupa: Użytkownik
  • Postów 590
  • Rejestracja: śro, 25 lut 09

Napisano 30 kwiecień 2013 - 09:41

Little Witch Academia OVA (2013) [1080p | ENG sub]

Dołączona grafika

Młodziutka Akko przystępuje do Szkoły Magii, w której młode dziewczęta uzyskują wiedzę, jak być silnymi wiedźmami. Wzorująca się na swojej idolce z dzieciństwa, wspaniałej władczyni różdżki Chariot, staje się obiektem kpin. Wszystko zmienia się w czasie jednej z lekcji. Uwolniony przez przypadek potężny smok zaczyna siać spustoszenie, a jedyną osobą zdolną go powstrzymać jest Akko.

Cytat

General
Complete name : Little Witch Academia.mp4
Format : MPEG-4
File size : 631 MiB
Duration : 26mn 9s
Overall bit rate mode : Variable
Overall bit rate : 3 370 Kbps

Video
Format : AVC
Format profile : [email protected]
Bit rate : 3 175 Kbps
Maximum bit rate : 10.9 Mbps
Width : 1 920 pixels
Height : 1 080 pixels
Display aspect ratio : 16:9
Frame rate mode : Constant
Frame rate : 29.970 fps
Chroma subsampling : 4:2:0
Bit depth : 8 bits
Scan type : Progressive
Stream size : 594 MiB (94%)

Audio
Format : AAC
Bit rate mode : Variable
Bit rate : 192 Kbps
Maximum bit rate : 202 Kbps
Channel(s) : 2 channels
Channel positions : Front: L R
Sampling rate : 44.1 KHz
Compression mode : Lossy
Stream size : 35.9 MiB (6%)


Dołączona grafika

Download:











Strona 1 z 1
  • Nie możesz napisać tematu
  • Nie możesz odpowiedzieć