everythings.pl: Sheena Shaw: Anal Squirts Drinks Her Juices - everythings.pl

Skocz do zawartości



Strona 1 z 1
  • Nie możesz napisać tematu
  • Nie możesz odpowiedzieć

Sheena Shaw: Anal Squirts Drinks Her Juices xXx PORN Oceń temat: -----

#1 Użytkownik nie jest zalogowany   Pazur 

  • Grupa: Użytkownik
  • Postów 588
  • Rejestracja: śro, 25 lut 09

Napisano 22 lipiec 2013 - 20:17

Dołączona grafika

Cytat

General
Format : MPEG-4
File size : 209 MiB
Duration : 27mn 22s
Overall bit rate : 1 068 Kbps

Video
Format : AVC
Format/Info : Advanced Video Codec
Format profile : [email protected]
Duration : 27mn 22s
Bit rate : 1 000 Kbps
Width : 640 pixels
Height : 360 pixels
Display aspect ratio : 16:9
Frame rate mode : Constant
Frame rate : 29.970 fps
Bit depth : 8 bits
Stream size : 195 MiB (93%)

Audio
Format : AAC
Format/Info : Advanced Audio Codec
Bit rate : 64.1 Kbps
Channel(s) : 2 channels
Channel positions : Front: L R
Sampling rate : 48.0 KHz
Stream size : 12.6 MiB (6%)


Dołączona grafika

:: Download ::












Strona 1 z 1
  • Nie możesz napisać tematu
  • Nie możesz odpowiedzieć