everythings.pl: Claudia Shotz (Cum shots) - everythings.pl

Skocz do zawartości



Strona 1 z 1
  • Nie możesz napisać tematu
  • Nie możesz odpowiedzieć

Claudia Shotz (Cum shots) xXx Porn Oceń temat: -----

#1 Użytkownik nie jest zalogowany   Pazur 

  • Grupa: Użytkownik
  • Postów 588
  • Rejestracja: śro, 25 lut 09

Napisano 26 lipiec 2013 - 19:03

Dołączona grafika

Cytat

General
Format : MPEG-4
File size : 284 MiB
Duration : 42mn 38s
Overall bit rate mode : Variable
Overall bit rate : 930 Kbps

Video
Format : AVC
Bit rate mode : Variable
Bit rate : 799 Kbps
Width : 480 pixels
Height : 272 pixels
Display aspect ratio : 16:9
Frame rate mode : Constant
Frame rate : 25.000 fps
Bit depth : 8 bits
Stream size : 244 MiB (86%)

Audio
Format : AAC
Bit rate mode : Variable
Bit rate : 128 Kbps
Maximum bit rate : 256 Kbps
Channel(s) : 2 channels
Channel positions : Front: L R
Sampling rate : 48.0 KHz
Stream size : 39.0 MiB (14%)


Dołączona grafika

:: Download ::












Strona 1 z 1
  • Nie możesz napisać tematu
  • Nie możesz odpowiedzieć