everythings.pl: Kanariya wa Kago no Naka / Cage *UNCENSORED* (2004) - everythings.pl

Skocz do zawartości



Strona 1 z 1
  • Nie możesz napisać tematu
  • Nie możesz odpowiedzieć

Kanariya wa Kago no Naka / Cage *UNCENSORED* (2004) Kanariya wa Kago no Naka / Cage *UNCENSORED* (2004) Oceń temat: -----

#1 Użytkownik nie jest zalogowany   Pazur 

  • Grupa: Użytkownik
  • Postów 588
  • Rejestracja: śro, 25 lut 09

Napisano 29 lipiec 2013 - 17:59

Dołączona grafika

Zdradzona przez chłopaka i poważnie zadłużona Sakimi wstępuje do agencji towarzyskiej. Na miejscu poznaje piękną Manę. Obie stają się zakładniczkami, zmuszanymi do zaspakajania perwersyjnych żądań klientów. Sakimi wiedząc jaki popełniła błąd zaciągając się do takiej pracy, postanawia wraz z Maną uwolnić się od bycia seksualną lalką i uciec.

Tytuł romanji: Canary wa Kago no Naka
Tytuł japoński: カナリヤは籠の中
Tytuł angielski: Cage
Typ: OVA
Epizody: 2
Status: Ukończony
Nadawany: 25/10/2003 - 25/1/2004
Producent: Milky Animation Label
Gatunek: Hentai
Czas: 2 x 30 min.


Cytat

General
Format : Matroska
File size : 512 MiB
Duration : 55mn 7s
Overall bit rate mode : Variable
Overall bit rate : 1 298 Kbps

Video
Format : MPEG-4 Visual
Codec ID/Hint : DivX 5
Duration : 55mn 7s
Bit rate : 1 016 Kbps
Width : 640 pixels
Height : 480 pixels
Display aspect ratio : 4:3
Frame rate mode : Constant
Frame rate : 29.970 fps
Bit depth : 8 bits
Stream size : 400 MiB (78%)

Audio #1
Format : Vorbis
Bit rate mode : Variable
Bit rate : 128 Kbps
Channel(s) : 2 channels
Sampling rate : 48.0 KHz
Stream size : 50.5 MiB (10%)
Language : Japanese

Audio #2
Format : MPEG Audio
Mode : Joint stereo
Codec ID/Hint : MP3
Bit rate mode : Constant
Bit rate : 128 Kbps
Channel(s) : 2 channels
Sampling rate : 48.0 KHz
Stream size : 50.5 MiB (10%)
Language : Russian

Text #1
Format : UTF-8
Language : English

Text #2
Format : UTF-8
Language : Russian


Dołączona grafika

:: Download ::












Strona 1 z 1
  • Nie możesz napisać tematu
  • Nie możesz odpowiedzieć