everythings.pl: Mashou no Kao / The Two Facials of Eve OVA *UNCENSORED* (2004) - everythings.pl

Skocz do zawartości



Strona 1 z 1
  • Nie możesz napisać tematu
  • Nie możesz odpowiedzieć

Mashou no Kao / The Two Facials of Eve OVA *UNCENSORED* (2004) Oceń temat: -----

#1 Użytkownik nie jest zalogowany   Pazur 

  • Grupa: Użytkownik
  • Postów 588
  • Rejestracja: śro, 25 lut 09

Napisano 11 sierpień 2013 - 10:31




REKLAMA


Mashou no Kao / The Two Facials of Eve OVA *UNCENSORED* (2004)

Dołączona grafika


Po powrocie do domu Keiichi przez przypadek przyłapuje nieznajomą nastolatkę na masturbacji w swoim pokoju. Zdezorientowany chłopak dowiaduje się, że perwersyjna dziewczyna to Reika. W wyniku śmierci jej rodziców, została przygarnięta przez rodzinę Keia. Dziewczyna prócz niezaspokojenia seksualnej żądzy, skrywa drugą naturę, o jakiej nikomu się nie śniło.

Typ: OVA
Odcinków: 1
Status: Ukończony
Premiera: 25.06.2004
Producenci: Media BlastersL, Discovery
Gatunek: Hentai
Czas: 30 min.


Cytat

General
Format : Matroska
File size : 353 MiB
Duration : 29mn 33s
Overall bit rate mode : Variable
Overall bit rate : 1 669 Kbps

Video
Format : AVC
Format profile : [email protected]
Bit rate : 1 380 Kbps
Width : 640 pixels
Height : 480 pixels
Display aspect ratio : 4:3
Frame rate : 23.976 fps
Bit depth : 8 bits
Stream size : 292 MiB (83%)

Audio #1
Format : Vorbis
Bit rate mode : Variable
Bit rate : 128 Kbps
Channel(s) : 2 channels
Sampling rate : 48.0 KHz
Stream size : 27.1 MiB (8%)
Language : Japanese

Audio #2
Format : Vorbis
Bit rate mode : Variable
Bit rate : 128 Kbps
Channel(s) : 2 channels
Sampling rate : 48.0 KHz
Stream size : 27.1 MiB (8%)
Language : English

Text #1
Format : ASS
Language : English

Text #2
Format : UTF-8
Language : English


Dołączona grafika

:: Download ::











Strona 1 z 1
  • Nie możesz napisać tematu
  • Nie możesz odpowiedzieć