everythings.pl: Kage / Shadow (2004) - everythings.pl

Skocz do zawartości



Strona 1 z 1
  • Nie możesz napisać tematu
  • Nie możesz odpowiedzieć

Kage / Shadow (2004) Oceń temat: -----

#1 Użytkownik nie jest zalogowany   Pazur 

  • Grupa: Użytkownik
  • Postów 588
  • Rejestracja: śro, 25 lut 09

Napisano 18 sierpień 2013 - 12:31




REKLAMA


Kres szogunatu jest bliski, a wraz z nim na dno mają pójść ninja, czyli wojownicy idealni. Żeby przetrwać, muszą skrywać swe oblicza i trudnić się jako asasyni. Wśród nich jest piękna i równie niebezpieczna Karyu, która wykorzystuje swoje wdzięki w imię misji.

Podczas wykonywania zadania, Karyu wkrada się do domu ofiary i zastaje cel zabawiający się ze swoją służącą. Asasynka stara się zrobić swoje, ale na jej drodze staje właśnie wykorzystywana służka, którą okazuje się być Uzume. Kobieta ma to samo zadanie co Karyu.


Cytat

Tytuł romanji: Kage
Tytuł japoński: 影
Tytuł angielski: Shadow
Typ: OVA
Epizody: 4
Status: Ukończony
Nadawany: 2004
Producent: APPP
Reżyser: Masashi Abe
Gatunek: Przemoc, sztuki walk, ninja, akcja, samuraje, sex, intryga
Czas: 4 x 30 min.


Cytat

General
Format : Matroska
Duration : 27mn 30s
Overall bit rate mode : Variable
Overall bit rate : 2 063 Kbps

Video
Format : AVC
Format profile : [email protected]
Bit rate : 1 862 Kbps
Width : 640 pixels
Height : 480 pixels
Display aspect ratio : 4:3
Frame rate mode : Constant
Frame rate : 23.976 fps
Standard : NTSC
Bit depth : 8 bits
Stream size : 367 MiB (90%)

Audio
Format : Vorbis
Bit rate mode : Variable
Bit rate : 160 Kbps
Channel(s) : 2 channels
Sampling rate : 48.0 KHz
Stream size : 31.5 MiB (8%)
Language : Japanese

Text
Format : ASS
Language : English


:: Screenshots ::

Spoiler


:: Download ::

Ep.1









Ep.2









Ep.3









Ep.4










:: Napisy PL ::





Strona 1 z 1
  • Nie możesz napisać tematu
  • Nie możesz odpowiedzieć