everythings.pl: Ass Worship 14 - Julies Jordan - everythings.pl

Skocz do zawartości



Strona 1 z 1
  • Nie możesz napisać tematu
  • Nie możesz odpowiedzieć

Ass Worship 14 - Julies Jordan XXX Oceń temat: -----

#1 Użytkownik nie jest zalogowany   Pazur 

  • Grupa: Użytkownik
  • Postów 588
  • Rejestracja: śro, 25 lut 09

Napisano 18 sierpień 2013 - 12:43




REKLAMA


Dołączona grafika

Cytat

General
Format : MPEG-4
File size : 301 MiB
Duration : 39mn 23s
Overall bit rate : 1 069 Kbps

Video
Format : AVC
Format profile : [email protected]
Bit rate : 1 000 Kbps
Width : 640 pixels
Height : 360 pixels
Display aspect ratio : 16:9
Frame rate mode : Constant
Frame rate : 29.970 fps
Bit depth : 8 bits
Scan type : Progressive
Stream size : 281 MiB (93%)

Audio
Format : AAC
Bit rate mode : Constant
Bit rate : 64.2 Kbps
Channel(s) : 2 channels
Channel positions : Front: L R
Sampling rate : 48.0 KHz
Stream size : 18.1 MiB (6%)


Dołączona grafika

:: Download ::










LUB / OR











Strona 1 z 1
  • Nie możesz napisać tematu
  • Nie możesz odpowiedzieć


Podobne tematy Zwiń