everythings.pl: Breanne Benson (Hardcore Allure 2) - everythings.pl

Skocz do zawartości



Strona 1 z 1
  • Nie możesz napisać tematu
  • Nie możesz odpowiedzieć

Breanne Benson (Hardcore Allure 2) xxx Oceń temat: -----

#1 Użytkownik nie jest zalogowany   Pazur 

  • Grupa: Użytkownik
  • Postów 588
  • Rejestracja: śro, 25 lut 09

Napisano 21 sierpień 2013 - 08:17

Dołączona grafika

Cytat

General
Format : MPEG-4
File size : 484 MiB
Duration : 36mn 13s
Overall bit rate mode : Variable
Overall bit rate : 1 867 Kbps

Video
Format : AVC
Format profile : [email protected]
Bit rate : 1 735 Kbps
Width : 720 pixels
Height : 404 pixels
Display aspect ratio : 16:9
Frame rate mode : Constant
Frame rate : 29.970 fps
Bit depth : 8 bits
Stream size : 450 MiB (93%)

Audio
Format : AAC
Bit rate mode : Variable
Bit rate : 128 Kbps
Channel(s) : 2 channels
Channel positions : Front: L R
Sampling rate : 48.0 KHz
Stream size : 33.2 MiB (7%)


Dołączona grafika

:: Download ::










Lub / Or











Strona 1 z 1
  • Nie możesz napisać tematu
  • Nie możesz odpowiedzieć