everythings.pl: Brazzers HD: Big Tits at School - Breanne & Tasha - everythings.pl

Skocz do zawartości



Strona 1 z 1
  • Nie możesz napisać tematu
  • Nie możesz odpowiedzieć

Brazzers HD: Big Tits at School - Breanne & Tasha XXX Oceń temat: -----

#1 Użytkownik nie jest zalogowany   Pazur 

  • Grupa: Użytkownik
  • Postów 588
  • Rejestracja: śro, 25 lut 09

Napisano 05 wrzesień 2013 - 19:40

Dołączona grafika

Cytat

General
Format : MPEG-4
File size : 454 MiB
Duration : 50mn 16s
Overall bit rate mode : Variable
Overall bit rate : 1 263 Kbps

Video
Format : AVC
Format profile : [email protected]
Bit rate : 1 100 Kbps
Width : 768 pixels
Height : 432 pixels
Display aspect ratio : 16:9
Frame rate mode : Variable
Frame rate : 29.970 fps
Bit depth : 8 bits
Stream size : 396 MiB (87%)

Audio
Format : AAC
Bit rate mode : Variable
Bit rate : 96.0 Kbps
Channel(s) : 2 channels
Channel positions : Front: L R
Sampling rate : 48.0 KHz
Stream size : 34.6 MiB (8%)


Dołączona grafika

:: Download ::












Strona 1 z 1
  • Nie możesz napisać tematu
  • Nie możesz odpowiedzieć