everythings.pl: WowGirls: Anjelica - Aggressive Lovemaking 720p HD - everythings.pl

Skocz do zawartości



Strona 1 z 1
  • Nie możesz napisać tematu
  • Nie możesz odpowiedzieć

WowGirls: Anjelica - Aggressive Lovemaking 720p HD HD porn Oceń temat: -----

#1 Użytkownik nie jest zalogowany   Pazur 

  • Grupa: Użytkownik
  • Postów 588
  • Rejestracja: śro, 25 lut 09

Napisano 14 listopad 2013 - 08:05

Dołączona grafika

Cytat

General
Format : MPEG-4
Format profile : Base Media
File size : 721 MiB
Duration : 34mn 35s
Overall bit rate mode : Variable
Overall bit rate : 2 917 Kbps

Video
Format : AVC
Format profile : [email protected]
Bit rate : 2 759 Kbps
Width : 1 280 pixels
Height : 720 pixels
Display aspect ratio : 16:9
Frame rate mode : Constant
Frame rate : 29.970 fps
Bit depth : 8 bits
Scan type : Progressive
Stream size : 682 MiB (95%)

Audio
Format : AAC
Bit rate mode : Variable
Bit rate : 152 Kbps
Channel count : 2 channels
Channel positions : Front: L R
Sampling rate : 44.1 KHz
Stream size : 37.6 MiB (5%)


Dołączona grafika


:: Download ::












Strona 1 z 1
  • Nie możesz napisać tematu
  • Nie możesz odpowiedzieć