everythings.pl: Requiem for a Dream OST (2008) 2CD [APE] - everythings.pl

Skocz do zawartości



Strona 1 z 1
  • Nie możesz napisać tematu
  • Nie możesz odpowiedzieć

Requiem for a Dream OST (2008) 2CD [APE] Oceń temat: -----

#1 Użytkownik nie jest zalogowany   Pazur 

  • Grupa: Użytkownik
  • Postów 588
  • Rejestracja: śro, 25 lut 09

Napisano 15 grudzień 2013 - 12:10

Dołączona grafika

Cytat

CD1
Complete name : Clint Mansell & Kronos Quartet - Requiem for a Dream O.S.T.
Format : Monkey's Audio
Duration : 51mn 7s
Bit rate : 644 Kbps
Channel count : 2 channels
Sampling rate : 44.1 KHz
Bit depth : 16 bits
Compression mode : Lossless
Compression ratio : 2.191
Stream size : 235 MiB (100%)
Encoding settings : High

CD2
Complete name : Various - Requiem for a Dream (Remixed)
Format : Monkey's Audio
Duration : 1h 16mn
Bit rate : 799 Kbps
Channel count : 2 channels
Sampling rate : 44.1 KHz
Bit depth : 16 bits
Compression mode : Lossless
Compression ratio : 1.766
Stream size : 436 MiB (100%)
Encoding settings : High


Tracklist:

Cytat

CD1
TRACK 01. Summer Overture (Summer)
TRACK 02. Party (Summer)
TRACK 03. Coney Island Dreaming (Summer)
TRACK 04. Party (Summer)
TRACK 05. Chocolate Charms (Summer)
TRACK 06. Ghosts of Things to Come (Summer)
TRACK 07. Dreams (Summer)
TRACK 08. Tense (Summer)
TRACK 09. Dr. Pill (Summer)
TRACK 10. High on Life (Summer)
TRACK 11. Ghosts (Summer)
TRACK 12. Crimin' & Dealin' (Summer)
TRACK 13. Hope Overture (Summer)
TRACK 14. Tense (Summer)
TRACK 15. Bialy & Lox Conga (Summer)
TRACK 16. Cleaning Apartment (Fall)
TRACK 17. Ghosts-Falling (Fall)
TRACK 18. Dreams (Fall)
TRACK 19. Arnold (Fall)
TRACK 20. Marion Barfs (Fall)
TRACK 21. Supermarket Sweep (Fall)
TRACK 22. Dreams (Fall)
TRACK 23. Sara Goldfarb Has Left the Building (Fall)
TRACK 24. Bugs Got a Devilish Grin Conga (Fall)
TRACK 25. Winter Overture (Winter)
TRACK 26. Southern Hospitality (Winter)
TRACK 27. Fear (Winter)
TRACK 28. Full Tense (Winter)
TRACK 29. The Beginning of the End (Winter)
TRACK 30. Ghosts of a Future Lost (Winter)
TRACK 31. Meltdown (Winter)
TRACK 32. Lux Aeterna (Winter)
TRACK 33. Coney Island Low (Winter)

CD2
TRACK 01. Tappy's Intro (Clint Mansell)
TRACK 02. In the End It's All Nice (Plant)
TRACK 03. Ghosts in the Machine (Psilonaut)
TRACK 04. Aeternal (Paul Oakenfold)
TRACK 05. Seacoast Towers (Clint Mansell)
TRACK 06. Coney Island Express (Jagz Kooner)
TRACK 07. Seacoast Alarm (Clint Mansell)
TRACK 08. Haunted Dreams (Wish FM)
TRACK 09. Tense (Kronos Quartet)
TRACK 10. Full Tension (Josh Wink)
TRACK 11. Food (Clint Mansell)
TRACK 12. Deluxed (Delerium)
TRACK 13. Island (Clint Mansell)
TRACK 14. Body & Fear (A Guy Called Gerald)
TRACK 15. 112 (Clint Mansell)
TRACK 16. Over Turned (ILS)
TRACK 17. Sara (Clint Mansell)
TRACK 18. Hand Jive (Hive)
TRACK 19. Arnold (Clint Mansell)
TRACK 20. Ghosts (Vocal Version) (Clint Mansell)


Cytat

size: 693 MB
Archive: zip
Files: ape, cue, log, jpg
Quality: Very good


:: Download ::












Strona 1 z 1
  • Nie możesz napisać tematu
  • Nie możesz odpowiedzieć