everythings.pl: Zagubione / Lost and Delirious (2001) - everythings.pl

Skocz do zawartości



Strona 1 z 1
  • Nie możesz napisać tematu
  • Nie możesz odpowiedzieć

Zagubione / Lost and Delirious (2001) HQ PL napisy Oceń temat: -----

#1 Użytkownik nie jest zalogowany   Pazur 

  • Grupa: Użytkownik
  • Postów 588
  • Rejestracja: śro, 25 lut 09

Napisano 31 październik 2011 - 17:40




REKLAMA


Zagubione / Lost and Delirious (2001) ENG.PL.LIMITED.DVDRip-ViTE

Dołączona grafika

iNFO z FilmWeb | iNFO from IMDb

Film opowiada o trzech dziewczynach chodzących do jednaj szkoły, przyjaciółkach "na śmierć i życie". Mary, Tori i Pauli toczą z pozoru normalne, dość rozrywkowe życie. Tylko one jednak wiedzą, jak jest naprawdę. W rzeczywistości Tori i Pauli są lesbijkami. I choć same nie zdają sobie z tego sprawy, kochają się. Dramat zaczyna się, gdy szkoła się o tym dowiaduje. Wszystkie trzy przekonają się, jak bolesna bywa ludzka nietolerancja. Jedna zrezygnuje, wypierając się wszystkiego (Tori), druga pozostaje wierną przyjaciółką, choć trzyma się z dala, za to Pauli kompletnie się zagubi, nie wiedząc co ze sobą zrobić. Czy uda im się znowu być najlepszymi przyjaciółkami? Czy może ta próba ich przerasta? No i czy to faktycznie była miłość? Na te pytania muszą znaleźć odpowiedź, gubiąc się w labiryncie własnych trosk i niepowodzeń. Czy zdążą się odnaleźć zanim nastąpi nieszczęście?

Lost and Delirious is the story of three adolescent girls' first love, their discovery of sexual passion, and their search for identities. Set in a posh, private boarding school surrounded by luxuriant, green forest, Lost and Delirious moves swiftly from academic routine, homesickness, and girlish silliness to the darker region of lover's intrigue.

Dołączona grafika Dołączona grafika
Dołączona grafika Dołączona grafika


Cytat

Format : AVI
File size : 701 MiB
Duration : 1h 39mn
Overall bit rate mode : Variable
Overall bit rate : 988 Kbps

Video
Format : MPEG-4 Visual
Codec ID/Hint : DivX 3 Low
Duration : 1h 39mn
Bit rate : 849 Kbps
Width : 576 pixels
Height : 320 pixels
Display aspect ratio : 16:9
Frame rate : 23.976 fps
Stream size : 602 MiB (86%)

Audio
Format : MPEG Audio
Codec ID/Hint : MP3
Duration : 1h 39mn
Bit rate mode : Variable
Bit rate : 128 Kbps
Channel(s) : 2 channels
Sampling rate : 48.0 KHz
Stream size : 89.5 MiB (13%)

Archive : .rar
Password : No
Recovery data : 1%
Data inside : .avi & .txt
Size : 707.7 MB
Size after unrar : 700.2 MB
Language : English
Subtitles : Yes in .txt (polskie)


Świetna jakość! 1 Link! 2 serwery! PL napisy!
Great quality! 1 link! 2 servers!
[/color]


Zagubione / Lost and Delirious (2001) ENG.PL.LIMITED.DVDRip-ViTE




LUB / OR





Strona 1 z 1
  • Nie możesz napisać tematu
  • Nie możesz odpowiedzieć