everythings.pl: Tekken: Blood Vengeance (2011) - everythings.pl

Skocz do zawartości



Strona 1 z 1
  • Nie możesz napisać tematu
  • Nie możesz odpowiedzieć

Tekken: Blood Vengeance (2011) Tekken: Blood Vengeance (2011) BRRIP X264 AC3-CrEwSaDe Oceń temat: -----

#1 Użytkownik nie jest zalogowany   Pazur 

  • Grupa: Użytkownik
  • Postów 588
  • Rejestracja: śro, 25 lut 09

Napisano 30 listopad 2011 - 17:29




REKLAMA


Dołączona grafika



This movie has a fair amount of depth and character development. Thanks to the small cast, tightly focused story, and an understanding of what makes a good game as opposed to a good movie, the audience is treated to something special–learning who these people we fight with in-game truly are, and how they got that way.

Cytat

Info ENG: imdb.com/title/tt2005363
Info PL: filmweb.pl/film/TEKKEN+Blood+Vengeance-2011-618069
Category: Movies / BDRip
Release Date: 25/11/2011
Video Format: x264
Size: 697 MB
Language: English
Audio Format: AC3
Subtitles: English
Archive: .rar
Part(s): 455MB + 249MB
Recovery data: 1%
Including: .mkv + .srt


Cytat

General
Format: Matroska
File size: 698 MiB
Duration: 1h 32mn
Overall bit rate: 1 058 Kbps
Language: English
Subtitles: Yes, English

Video
Bit rate: 929 Kbps
Width: 720 pixels
Height: 400 pixels
Display aspect ratio: 16:9
Frame rate: 23.976 fps
Stream size: 600 MiB (86%)

Audio
Format: AC-3
Bit rate mode: Constant
Bit rate: 128 Kbps
Channel(s): 6 channels
Channel positions: Front: L C R, Side: L R, LFE
Sampling rate: 48.0 KHz
Stream size: 84.4 MiB (12%)
Language: English


Linki / Download



Lub / Or



Lub / Or




#2 Użytkownik nie jest zalogowany   Marrakech 

  • Grupa: Użytkownik
  • Postów 4589
  • Rejestracja: pią, 01 paź 10

Napisano 04 grudzień 2011 - 20:37

TEKKEN: Blood Vengeance (2011) PL.SUBBED.BRRip.XViD-SLiSU

Cytat

Format : AVI at 1 062 Kbps
Length : 700 MiB for 1h 32mn 10s 567ms

Video #0 : MPEG-4 Visual at 924 Kbps
Aspect : 640 x 352 (1.818) at 23.976 fps

Audio #0 : MPEG Audio at 128 Kbps
Infos : 2 channels, 48.0 KHz

Napisy PL Wtopione

Zawartość Uploadu: Plik .avi
Wersja Językowa: Eng
Dane Naprawcze: 2%
Hasło: Brak

###LiNKi###

Sample - Klik






Strona 1 z 1
  • Nie możesz napisać tematu
  • Nie możesz odpowiedzieć