everythings.pl: Skiny Sindy like it anal (2011) - everythings.pl

Skocz do zawartości



Strona 1 z 1
  • Nie możesz napisać tematu
  • Nie możesz odpowiedzieć

Skiny Sindy like it anal (2011) xXx +18! Oceń temat: -----

#1 Użytkownik nie jest zalogowany   Pazur 

  • Grupa: Użytkownik
  • Postów 588
  • Rejestracja: śro, 25 lut 09

Napisano 20 styczeń 2012 - 19:49

Dołączona grafika

Cytat

Format: Flash Video
File size: 110 MiB
Duration: 32mn 22s
Overall bit rate: 474 Kbps

Video format: AVC
Width: 416 pixels
Height: 240 pixels
Display aspect ratio: 16:9
Frame rate: 24.000 fps
Stream size: 86.1 MiB (78%)

Audio format: AAC
Bit rate: 94.4 Kbps
Channel(s): 2 channels
Sampling rate: 44.1 KHz
Stream size: 23.3 MiB (21%)


Dołączona grafika

Link / Download:





Strona 1 z 1
  • Nie możesz napisać tematu
  • Nie możesz odpowiedzieć