everythings.pl: Julie Silver has a very elastic hole - everythings.pl

Skocz do zawartości



Strona 1 z 1
  • Nie możesz napisać tematu
  • Nie możesz odpowiedzieć

Julie Silver has a very elastic hole xXx +18! Oceń temat: -----

#1 Użytkownik nie jest zalogowany   Pazur 

  • Grupa: Użytkownik
  • Postów 590
  • Rejestracja: śro, 25 lut 09

Napisano 25 styczeń 2012 - 18:59

Dołączona grafika

Cytat

Format: Flash Video
File size: 95.2 MiB
Duration: 27mn 59s
Overall bit rate: 476 Kbps

Video format: AVC
Nominal bit rate: 400 Kbps
Width: 352 pixels
Height: 240 pixels
Frame rate: 24.000 fps
Stream size: 75.4 MiB (79%)

Audio format: AAC
Channel(s): 2 channels
Sampling rate: 44.1 KHz
Stream size: 19.4 MiB (20%)


Dołączona grafika

Link / Download





Strona 1 z 1
  • Nie możesz napisać tematu
  • Nie możesz odpowiedzieć