everythings.pl: Dragon Ball GT [Lektor PL] AXN Spine - everythings.pl

Skocz do zawartości



Strona 1 z 1
  • Nie możesz napisać tematu
  • Nie możesz odpowiedzieć

Dragon Ball GT [Lektor PL] AXN Spine Oceń temat: -----

#1 Użytkownik nie jest zalogowany   Pazur 

  • Grupa: Użytkownik
  • Postów 588
  • Rejestracja: śro, 25 lut 09

Napisano 26 styczeń 2012 - 18:26




REKLAMA


Dołączona grafika

Dziesięć lat po 28 Tenkaichi Budokai, Pilaf udaje się do pałacu Dende, gdzie jak się dowiedział, znajdują się Smocze Kule o wiele potężniejsze od tych które znamy z serii DB i DBZ, gdyż zostały stworzone zanim Kami Sama oddzielił się od Piccolo. Pilaf chciał życzyć sobie władzy nad światem, jednak gdy zobaczył Goku, wtedy wypowiada dziwne życzenie, które zmienia Goku w małego chłopca. Kule rozpraszają się po całym wszechświecie. Od North Kaio Goku dowiaduje się, że musi odnaleźć wszystkie 7 kul w 12 miesięcy, inaczej Ziemię czeka zagłada. W podróż z Goku wyruszają Pan (zamiast niej, lecieć miał Goten, tyle że Pan weszła na statek po kryjomu, a Goten się spóźnił) oraz Trunks.

Cytat

Complete name: Dragon Ball GT #01 (DVBrip) (Lektor PL).avi
Format: AVI
File size: 180 MiB
Duration: 24mn 14s
Overall bit rate: 1 037 Kbps

Video format: MPEG-4 Visual
Width: 640 pixels
Height: 480 pixels
Display aspect ratio: 4:3
Frame rate: 25.000 fps
Stream size: 156 MiB (87%)

Audio format: MPEG Audio
Bit rate: 128 Kbps
Channel(s): 2 channels
Sampling rate: 48.0 KHz
Stream size: 22.2 MiB (12%)


Dołączona grafika
Dołączona grafika
Dołączona grafika
Dołączona grafika


Linki / Download:
Dragon Ball GT #01 (DVBrip) (Lektor PL)




#2 Użytkownik nie jest zalogowany   Pazur 

  • Grupa: Użytkownik
  • Postów 588
  • Rejestracja: śro, 25 lut 09

Napisano 30 styczeń 2012 - 12:28

Dragon Ball GT #02 (DVBrip) (Lektor PL)




#3 Użytkownik nie jest zalogowany   Pazur 

  • Grupa: Użytkownik
  • Postów 588
  • Rejestracja: śro, 25 lut 09

Napisano 02 luty 2012 - 15:39

Dragon Ball GT #03 (DVBrip) (Lektor PL)



Lub / Or




#4 Użytkownik nie jest zalogowany   Pazur 

  • Grupa: Użytkownik
  • Postów 588
  • Rejestracja: śro, 25 lut 09

Napisano 08 luty 2012 - 18:33

Dragon Ball GT #04 (DVBrip) (Lektor PL)



Lub / Or



Dragon Ball GT #05 (DVBrip) (Lektor PL)



Lub / Or



Dragon Ball GT #06 (DVBrip) (Lektor PL)



Lub / Or




#5 Użytkownik nie jest zalogowany   Pazur 

  • Grupa: Użytkownik
  • Postów 588
  • Rejestracja: śro, 25 lut 09

Napisano 15 luty 2012 - 15:36

Dragon Ball GT #07 (DVBrip) (Lektor PL)



Dragon Ball GT #08 (DVBrip) (Lektor PL)



Dragon Ball GT #09 (DVBrip) (Lektor PL)




#6 Użytkownik nie jest zalogowany   MiELONY 

  • Grupa: Użytkownik
  • Postów 246
  • Rejestracja: pią, 13 maj 11

Napisano 07 marzec 2012 - 18:38

Dragon Ball GT (1996-1997)
COMPLETE.REMASTERED.CUT.PL.DVDRip.XviD.AC3-WhoCares



~ DANE TECHNiCZNE ~

Cytat

Dragon.Ball.GT.COMPLETE.REMASTERED.CUT.PL.DVDRip.XviD.AC3-WhoCares

AUDIO LANGUAGE...: Polish Lector
GENRE............: Animation, Action, Adventure

Video............: Ni_To_Duzo-Ni_To_Malo Kbps XviD
Audio............: 192 kb/s 2 chnls AC3 Polish
Video Size.......: 13.78 GB

FILMWEB....: Dragon Ball GT (Serial TV 1996-1997) - Filmweb
IMDB.......: IMDb - Dragon Ball GT (TV Series 1996–2005)




Dragon.Ball.GT.S01.REMASTERED.CUT.PL.DVDRip.XviD.AC3-WhoCares

~ POBiERZ BEZ LiMiTÓW ~









Dragon.Ball.GT.S02.REMASTERED.CUT.PL.DVDRip.XviD.AC3-WhoCares


~ POBiERZ BEZ LiMiTÓW ~







Dragon.Ball.GT.S03.REMASTERED.CUT.PL.DVDRip.XviD.AC3-WhoCares

~ POBiERZ BEZ LiMiTÓW ~





#7 Użytkownik nie jest zalogowany   Pazur 

  • Grupa: Użytkownik
  • Postów 588
  • Rejestracja: śro, 25 lut 09

Napisano 12 marzec 2012 - 17:09

Dragon Ball GT #10 (DVBrip) (Lektor PL)



Dragon Ball GT #11 (DVBrip) (Lektor PL)



Dragon Ball GT #12 (DVBrip) (Lektor PL)



Dragon Ball GT #13 (DVBrip) (Lektor PL)



Dragon Ball GT #14 (DVBrip) (Lektor PL)



Dragon Ball GT #15 (DVBrip) (Lektor PL)



Dragon Ball GT #16 (DVBrip) (Lektor PL)



Dragon Ball GT #17 (DVBrip) (Lektor PL)



Dragon Ball GT #18 (DVBrip) (Lektor PL)




#8 Użytkownik nie jest zalogowany   Pazur 

  • Grupa: Użytkownik
  • Postów 588
  • Rejestracja: śro, 25 lut 09

Napisano 17 marzec 2012 - 14:54

Dragon Ball GT #19 (DVBrip) (Lektor PL)



Dragon Ball GT #20 (DVBrip) (Lektor PL)



Dragon Ball GT #21 (DVBrip) (Lektor PL)



Dragon Ball GT #22 (DVBrip) (Lektor PL)





Strona 1 z 1
  • Nie możesz napisać tematu
  • Nie możesz odpowiedzieć