everythings.pl: Jessica - You'll cum on this beauty 2011 - everythings.pl

Skocz do zawartości



Strona 1 z 1
  • Nie możesz napisać tematu
  • Nie możesz odpowiedzieć

Jessica - You'll cum on this beauty 2011 XXX +18! Oceń temat: -----

#1 Użytkownik nie jest zalogowany   Pazur 

  • Grupa: Użytkownik
  • Postów 588
  • Rejestracja: śro, 25 lut 09

Napisano 28 styczeń 2012 - 12:35




REKLAMA


Dołączona grafika

Cytat

Format: Flash Video
File size: 50.2 MiB
Duration: 16mn 20s
Overall bit rate: 429 Kbps

Video format: AVC
Duration: 16mn 20s
Bit rate: 360 Kbps
Width: 480 pixels
Height: 352 pixels
Display aspect ratio: 4:3
Frame rate: 29.970 fps
Stream size: 42.2 MiB (84%)

Audio format: AAC
Bit rate: 62.9 Kbps
Channel(s): 2 channels
Stream size: 7.77 MiB (15%)


Link / Download:





Strona 1 z 1
  • Nie możesz napisać tematu
  • Nie możesz odpowiedzieć