everythings.pl: Świat według Ludwiczka / Life with Louie (1999) Dubbing PL - everythings.pl

Skocz do zawartości



Strona 1 z 1
  • Nie możesz napisać tematu
  • Nie możesz odpowiedzieć

Świat według Ludwiczka / Life with Louie (1999) Dubbing PL Polski dubbing, TVRip, dobra jakość Oceń temat: -----

#1 Użytkownik nie jest zalogowany   Pazur 

  • Grupa: Użytkownik
  • Postów 588
  • Rejestracja: śro, 25 lut 09

Napisano 30 styczeń 2012 - 17:52

Dołączona grafika

Serial opowiada o przygodach Ludwiczka Andersona, chłopca z wielodzietnej, niezbyt bogatej rodziny. Ludi, tak na niego wszyscy mówią, jest krótko mówiąc otyły. Ciągle wcina jakieś ciastko lub loda. Bez jedzenia świat nie ma dla niego sensu. Oprócz jedzenia lubi spotykać się z kolegami, grać z nimi w piłkę w czasie rozgrywek baseballowych, rzucać się śnieżkami w zimie i jeździć na rowerach. Niestety, często przeszkadza mu w tym jego młodszy brat Tommy. Ludi często robi sobie żarty z młodszego brata i bardzo lubi go straszyć. Ojciec Ludiego, Andy, pracuje w fabryce traktorów. Posiada on swój stary samochód, którego uważa za członka rodziny. Mama Ludwiczka jest typową gospodynią domową. Ciągle gotuje, nawet Andy mówi, że jeśli nadeszłaby wielka powódź i zakryłaby świat na cały rok, to ich rodzina nie opuściłaby żadnego posiłku.

Cytat

Tytuł oryginalny: Life with Louie
Produkcja: USA
Lata emisji: 1995 - 1998
Gatunek: Komedia, familijny, animacja, dla dzieci i młodzieży
Sezony: 3
Odcinki: 39
Głosów użyczyli m.in.: January Brunov (Ludwiczek), Wojciech Paszkowski (Andy Anderson), Ewa Markowska (Ora Anderson), Olga Bończyk & Iwona Rulewicz (Jeannie Harper), Piotr Adamczyk & Jarosław Boberek (Michael Grunevald), Jacek Braciak & Brygida Turowska-Szymczak (Toddler) i inni.


Cytat

Format: AVI
File size: 175 MiB
Duration: 20mn 16s
Overall bit rate mode: Variable
Overall bit rate: 1 207 Kbps

Video format: MPEG-4 Visual
Bit rate: 1 087 Kbps
Width: 512 pixels
Height: 384 pixels
Display aspect ratio: 4:3
Frame rate: 25.000 fps
Stream size: 158 MiB (90%)

Audio format: MPEG Audio
Bit rate mode: Variable
Nominal bit rate: 128 Kbps
Channel(s): 2 channels
Sampling rate: 48.0 KHz
Stream size: 15.5 MiB (9%)


Dołączona grafika Dołączona grafika
Dołączona grafika Dołączona grafika


Odc. 01 - Świąteczna niespodzianka



Odc. 02 - Bezrobotny Tata




#2 Użytkownik nie jest zalogowany   Pazur 

  • Grupa: Użytkownik
  • Postów 588
  • Rejestracja: śro, 25 lut 09

Napisano 02 luty 2012 - 15:38

Odc. 03 - Mokry sąsiad w moim łóżku



Odc. 04 - Grunt to dobry trener



Lub / Or



Odc. 05 - Rybka zwana Pepper



Lub / Or



Odc. 06 - Jezioro Winnibigoshish



Lub / Or




#3 Użytkownik nie jest zalogowany   Pazur 

  • Grupa: Użytkownik
  • Postów 588
  • Rejestracja: śro, 25 lut 09

Napisano 06 luty 2012 - 20:42

Odc. 07 - Zimowy karnawał w Cedrowej Górce



Lub / Or



Odc. 08 - Świąteczny obiad



Lub / Or



Odc. 09 - Niezapomniany festyn



Lub / Or




#4 Użytkownik nie jest zalogowany   Pazur 

  • Grupa: Użytkownik
  • Postów 588
  • Rejestracja: śro, 25 lut 09

Napisano 08 luty 2012 - 18:33

Odc. 10 - Cud w Cedrowej Górce



Lub / Or



Odc. 11 - Na tropie jeleni



Lub / Or



Odc. 12 - Mocne uczulenie



Lub / Or



Odc. 13 - Fanatyk Ramblera



Lub / Or




#5 Użytkownik nie jest zalogowany   Pazur 

  • Grupa: Użytkownik
  • Postów 588
  • Rejestracja: śro, 25 lut 09

Napisano 15 luty 2012 - 15:33

:: SEZON 2 ::
Odc. 01 - Kijkarz na gorącym blaszanym dachu



Odc. 02 - Lato mojej goryczy



Odc. 03 - Zimowe szaleństwo




#6 Użytkownik nie jest zalogowany   Pazur 

  • Grupa: Użytkownik
  • Postów 588
  • Rejestracja: śro, 25 lut 09

Napisano 16 marzec 2012 - 14:55

Odc. 04 - Opus Ludwiczka



Odc. 05 - Bez dachu nad głową



Odc. 06 - Jak Spędzić dzień w Waszyngtonie



Odc. 07 - Parszywa Dwunastka



Odc. 08 - Kazoo przychodzi na obiad



Odc. 09 - Doświadczenie z pszczołami



Odc. 10 - Zamaskowany mały szachista



Odc. 11 - Dla dobra Petea



Odc. 12 - Dobrzy i źli państwo Glenn



Odc. 13 - Podziękowania





Strona 1 z 1
  • Nie możesz napisać tematu
  • Nie możesz odpowiedzieć