everythings.pl: Carolline - Brunette Beauty In Oil (2011) - everythings.pl

Skocz do zawartości



Strona 1 z 1
  • Nie możesz napisać tematu
  • Nie możesz odpowiedzieć

Carolline - Brunette Beauty In Oil (2011) xXx +18 Oceń temat: -----

#1 Użytkownik nie jest zalogowany   Pazur 

  • Grupa: Użytkownik
  • Postów 588
  • Rejestracja: śro, 25 lut 09

Napisano 02 luty 2012 - 19:37




REKLAMA


Dołączona grafika

Cytat

Format: Flash Video
File size: 161 MiB
Duration: 52mn 28s
Overall bit rate: 430 Kbps

Video format: AVC
Width: 480 pixels
Height: 272 pixels
Display aspect ratio: 16:9
Frame rate: 29.970 fps
Stream size: 136 MiB (85%)

Audio format: AAC
Bit rate: 62.7 Kbps
Channel(s): 2 channels
Stream size: 24.4 MiB (15%)


Dołączona grafika

Link / Download



Lub / Or





Strona 1 z 1
  • Nie możesz napisać tematu
  • Nie możesz odpowiedzieć