everythings.pl: Battleship 2012 - everythings.pl

Skocz do zawartości



Strona 1 z 1
  • Nie możesz napisać tematu
  • Nie możesz odpowiedzieć

Battleship 2012 Oceń temat: -----

#1 Użytkownik nie jest zalogowany   woodyg 

  • Grupa: Użytkownik
  • Postów 0
  • Rejestracja: wto, 24 kwi 12

Napisano 10 maj 2012 - 09:57




REKLAMA


Battleship 2012 CAM READNFO XViD v4 - INSPiRAL

Dołączona grafika

Battleship 2012 CAM READNFO XViD v4 - INSPiRAL


Dane techniczne:

SOURCES:

VIDEO - Twixx,p76 THANKS
AUDIO - 26K THANKS
SUBS - None Add

STATS:

Video
ID : 0
Format : MPEG-4 Visual
Format profile : Advanced [email protected]
Format settings, BVOP : 2
Format settings, QPel : No
Format settings, GMC : No warppoints
Format settings, Matrix : Default (MPEG)
Muxing mode : Packed bitstream
Codec ID : XVID
Codec ID/Hint : XviD
Duration : 2h 0mn
Bit rate : 1 720 Kbps
Width : 720 pixels
Height : 288 pixels
Display aspect ratio : 2.500
Frame rate : 29.970 fps
Color space : YUV
Chroma subsampling : 4:2:0



Bit depth : 8 bits
Scan type : Progressive
Compression mode : Lossy
Bits/(Pixel*Frame) : 0.277
Stream size : 1.45 GiB (92%)
Writing library : XviD 64

Audio
ID : 1
Format : MPEG Audio
Format version : Version 1
Format profile : Layer 3
Codec ID : 55
Codec ID/Hint : MP3
Duration : 2h 0mn
Bit rate mode : Constant
Bit rate : 128 Kbps
Channel(s) : 2 channels
Sampling rate : 44.1 KHz
Compression mode : Lossy
Stream size : 111 MiB (7%)
Alignment : Split accross interleaves
Interleave, duration : 33 ms (1.00 video frame)
Interleave, preload duration : 500 ms


part1- 700 mb
part2- 700 mb
part3- 187 mb












#2 Użytkownik nie jest zalogowany   Lucas_21 

  • Grupa: Użytkownik
  • Postów 1309
  • Rejestracja: pią, 08 sty 10

Napisano 17 lipiec 2012 - 18:58

Battleship: Bitwa o Ziemię / Battleship (2012) R6.WEBSCR.XviD-NFT

Spoiler

400mb




zmienność linków













1 plik Avi~1,37GB





Strona 1 z 1
  • Nie możesz napisać tematu
  • Nie możesz odpowiedzieć